#TITLE:Kimi, Hohoenda Yoru;
#SUBTITLE:- Steam Detectives Opening;
#ARTIST:Elika;
#TITLETRANSLIT:;
#SUBTITLETRANSLIT:;
#ARTISTTRANSLIT:;
#CREDIT:True Ancestor;
#BANNER:steambanner.png;
#BACKGROUND:steam1.png;
#LYRICSPATH:;
#CDTITLE:trueancestor.png;
#MUSIC:Steam_Detectives_-_Kimi_Hohoenda_Yoru.mp3;
#OFFSET:-0.380;
#SAMPLESTART:78.780;
#SAMPLELENGTH:28.640;
#SELECTABLE:YES;
#BPMS:0.000=75.000,42.250=138.000,179.000=139.000,195.000=138.000,363.000=69.000,375.000=70.000,379.000=138.000;
#STOPS:;
#BGCHANGES:;
// cache tags:
#FIRSTBEAT:0.000;
#LASTBEAT:464.000;
#SONGFILENAME:songs/Otaku's Dream 3rd Anime Mix/[TrueAncestor] Kimi, Hohoenda Yoru - Steam Detectives OP/Kimi, Hohoenda Yoru.sm;
#HASMUSIC:1;
#HASBANNER:1;
#MUSICLENGTH:234.535;
// end cache tags

//---------------dance-single - ----------------
#NOTES:
     dance-single:
     :
     Challenge:
     15:
     1.000,1.000,1.000,0.554,1.000,1412.000,540.000,130.000,0.000,1.000:








2020
0000
0000
3030
0202
0000
0000
0303
2002
0000
0003
3000
0220
0000
0330
0000
,
0022
0000
0000
0000
0030
2000
0003
0000
0000
0000
3000
0000
0110
0000
0000
0000
2200
0000
0000
0000
0000
0000
0000
0000
0000
0000
3300
0000
1100
0000
0011
0000
,
0202
0000
0303
2200
0000
3300
0110
0000
0110
0000
0101
0000
1010
0000
1100
0000
,
2020
0000
0000
3030
2002
0000
0000
3003
0011
0000
0101
0000
1001
0000
1100
0000
,
2020
0000
0000
0000
0000
0000
0000
0000
0000
0000
0000
0000
0000
0000
0000
0000
0000
0000
0000
0000
0000
0000
0000
0000
0030
0000
0000
0000
0000
0000
3200
0000
0000
0000
0000
0000
0000
0000
0000
0000
0000
0000
0000
0000
0000
0000
0000
0000
0000
0000
0000
0000
0000
0000
0000
0000
0000
0000
0000
0000
0000
0000
0000
0000
0000
0000
0300
0000
0000
0000
0000
0000
0011
0000
0000
0000
0000
0000
0000
0000
0000
0000
0000
0000
0000
0000
0000
0000
0000
0000
0000
0000
0000
0000
0000
0000
2200
0000
0000
0000
0000
0000
0000
0000
0000
0000
0000
0000
0000
0000
0000
0000
0000
0000
0000
0000
0000
0000
0000
0000
0000
0000
0000
0000
0000
0000
0000
0000
3300
0000
0000
0000
0000
0000
0000
0000
0100
0000
0000
0000
0010
0000
0000
0000
0002
0000
0000
0000
0000
0000
0000
0000
0000
0000
0000
0000
0000
0000
0000
0000
0000
0000
0003
0000
0000
0000
0000
0000
0011
0000
0000
0000
0000
0000
0000
0000
0000
0000
0000
0000
1001
0000
0000
0000
0000
0000
0000
0000
0000
0000
0000
0000
,
0101
0000
0000
0000
0011
0000
0000
0000
1100
0000
0000
0000
1010
0000
0000
0000
0202
0000
0000
0000
0000
0000
0303
0000
0202
0000
0000
0000
0303
1010
0000
0110
,
0000
0202
0000
0000
0000
0000
0300
0003
0000
1001
0000
0000
0000
2002
0000
0000
0000
0000
3003
0000
0110
0000
0000
0110
1001
0000
0000
0000
1100
0000
0000
0000
,
0202
0000
0000
0000
0000
0000
0000
0303
2002
0000
0000
0000
0000
0000
0000
3003
0220
0000
0000
0000
0000
0000
0330
0000
1000
0000
0000
0000
0101
0000
0000
0000
,
2020
0000
0000
0000
0000
0000
0000
3030
0202
0000
0000
0000
0000
0000
0000
0303
2020
0000
0000
0000
0000
3000
0200
0000
0000
0000
0000
0000
0000
0000
0330
0000
,
0022
0000
0000
0000
0000
0000
0000
0000
0000
0000
0000
0000
0000
0000
0000
0000
0000
0000
0000
0000
0000
0000
0000
0000
0000
0000
0000
0000
0000
0000
0000
0000
0000
0000
0000
0000
0000
0000
0000
0000
0000
0000
1030
0000
0000
0000
0000
0000
0010
0000
0000
0000
0000
0000
0100
0000
0000
0010
0000
0000
1000
0000
0000
0000
0000
0000
0010
0000
0000
0000
0000
0000
1000
0000
0000
0000
0000
0000
0100
0000
0000
0000
0000
0000
0010
0000
0000
0000
0000
0000
1000
0000
0000
0000
0000
0000
1000
0000
0000
0000
0000
0000
0100
0000
0000
0010
0000
0000
1000
0000
0000
0000
0000
0000
0100
0000
0000
0000
0000
0000
1000
0000
0000
0000
0000
0000
0100
0000
0000
0000
0000
0000
0010
0000
0000
0000
0000
0000
1000
0000
0000
0000
0000
0000
0100
0000
0000
0000
0000
0000
1000
0000
0000
0100
0000
0000
0000
0000
0000
0000
0010
0000
0000
0000
0010
0000
0000
0000
0100
0000
0000
0000
1000
0000
0000
0000
0000
0000
0000
0000
0000
0000
0000
1000
0000
0000
1000
0000
0000
0100
0000
0000
,
0020
0000
0000
0000
0000
0000
0000
0000
0000
0000
0000
0000
0000
0000
0000
0000
0000
0000
0000
0000
0000
0000
0030
0003
0110
0000
0010
0000
1001
0000
0000
0000
,
0110
0000
1001
0000
0101
1000
0110
0000
1010
0000
0101
0000
1001
0010
0101
0000
,
1010
0000
0110
0000
1010
0100
0011
0000
1100
0000
0110
0000
0101
0001
1010
0000
,
0101
0000
1100
0000
0011
0100
0110
0000
1010
0000
0110
0000
1001
0010
1100
0000
,
1001
0000
0101
0000
0110
1000
1010
0000
0101
0000
1010
0000
0110
0001
1100
0000
,
1001
0000
0110
0000
0011
0100
1100
0000
0101
0000
1100
0000
0011
1000
0110
0000
,
1100
0000
0101
0000
1010
0010
0101
0000
1100
0000
0011
0000
1100
0100
0011
0000
,
0101
0000
0110
0000
0101
1000
1100
0000
0110
0000
1100
0000
1001
0010
0110
0000
,
1010
0000
0101
0000
0011
0100
1010
0000
0101
0000
1001
0000
0010
0001
1100
0011
,
0000
0011
1100
0000
0101
0010
0100
1000
0202
0000
0000
0303
0001
0010
0101
0000
,
0100
1000
0110
0000
0010
0100
1010
0000
0010
0001
0011
0000
0100
1000
0110
0000
,
0010
0100
1010
0000
1000
0100
1001
0000
0001
0100
0011
0000
0010
0100
0110
0000
,
0010
0001
0110
0000
1000
0001
1010
0000
0100
0010
1100
0000
1200
0000
0301
1010
,
0000
0001
0110
0000
2001
0000
3010
0101
0000
1000
0101
0000
0001
1000
0101
0000
,
0100
1000
0110
0000
0010
0100
1010
0000
1000
0001
0011
0000
0001
0100
1100
0000
,
1000
0001
1010
0000
0010
0001
0110
0000
0100
0010
0101
0000
1000
0100
1010
0000
,
1000
0001
1100
0000
0010
0001
1001
0000
0100
0010
1010
0000
0001
0100
1010
0000
,
0010
0100
0101
0000
0100
1000
0101
0000
1000
0000
1001
0010
0101
0000
1000
0000
,
0101
1000
1001
1000
0110
1000
1100
0010
,
0101
0000
0000
0000
0011
0000
2200
0000
0000
3300
0000
0000
1000
0000
0001
0000
1000
0000
0100
0000
0010
0000
0001
0000
1001
0000
0000
0000
0100
0000
0010
0000
,
0110
0000
1000
0001
2002
0000
3003
2200
0000
3300
0011
0000
0200
0000
0310
0101
,
0000
1000
0110
0000
0002
0000
0013
1100
0000
0001
1100
0001
1000
0000
0001
0010
,
1100
0000
0001
0100
0110
0000
1000
0010
0101
0000
1000
0100
1010
0000
0100
1000
,
0101
0000
0110
0000
1100
0000
0110
0000
1001
0000
0011
0100
2200
0000
0000
3300
,
2002
0000
0000
0000
0000
0000
0000
0000
0000
3003
0000
0000
2200
0000
0000
0000
0000
0000
3300
0000
0000
0011
0000
0000
0000
0000
0000
0000
0000
0000
0202
0000
0000
0000
0303
0000
2010
0000
0000
0000
0000
0000
3001
0000
0000
0110
0000
0000
,
0000
1000
0101
0000
0102
0000
0103
1001
0000
0100
1100
0000
2010
0000
3100
0000
,
0021
0000
0031
0000
1002
0000
1003
0000
0210
0000
0301
0000
1100
0100
1000
0001
,
0100
0010
0100
1000
0110
1000
0001
0100
0001
1000
0010
0001
0101
0001
1000
0100
,
1000
0001
0010
1000
1010
0100
0001
0010
0001
0010
0100
1000
0110
1000
0100
0010
,
1000
0001
0100
0010
1001
1000
0100
1000
0001
0100
1000
0100
0110
0001
0010
0100
,
1000
0001
0100
0001
1001
0100
0010
0100
0001
0010
0100
0001
1010
0100
1000
0001
,
0100
0010
0100
0001
1100
0010
0001
0100
1000
0010
1000
0001
0011
0100
1000
0100
,
0010
0001
0010
0100
1100
0100
0010
0100
0001
0100
0010
1000
1100
0010
0001
0100
,
0010
0001
0100
1000
0110
0001
0100
1000
0100
0001
0010
1000
0011
0001
0010
1000
,
0101
1000
0001
0100
0011
1000
0100
0010
0101
1000
0001
1000
0011
0001
0110
0000
,
1100
0000
0101
0000
1100
0100
1001
0000
0110
0000
1010
0000
0101
0100
0011
0000
,
0110
0000
1001
0000
0110
1000
1100
0000
1001
0000
0110
0000
1010
0001
0101
0000
,
0011
0000
1100
0000
0101
0010
1010
0000
1100
0000
0011
0000
0101
0100
1010
0000
,
0110
0000
1001
0000
0110
1000
1001
0000
0101
0000
1001
0000
0110
0001
1100
0000
,
1001
0000
0110
0000
1100
0010
1001
0000
0110
0000
1010
0000
0101
0100
1001
0000
,
1100
0000
1001
0000
0110
1000
1001
0000
0011
0000
0110
0000
1010
0001
0101
0000
,
1010
0000
0101
0000
1001
0100
1010
0000
1100
0000
0011
0000
1100
0001
1010
0000
,
0101
0000
1100
0000
0011
1000
0101
0000
1100
0000
0011
0000
0001
0010
1100
0000
,
1000
0100
0011
0000
0001
0010
0101
0000
1000
0100
0011
0000
1000
0001
1010
0000
,
0010
0001
0110
0000
1000
0001
1001
0000
0100
1000
1100
0000
0010
0100
0110
0000
,
0010
0001
0011
0000
0100
1000
0101
0000
0100
0010
0011
0000
0201
0000
1300
0101
,
0000
0100
1001
0000
1200
0000
0301
0110
0000
0100
0011
0000
1000
0100
0011
0000
,
0001
0100
1001
0000
1000
0010
0011
0000
0001
0010
1001
0000
1000
0100
1001
0000
,
0001
0010
1010
0000
0100
0010
1100
0000
0001
0100
0110
0000
1000
0001
0101
0000
,
0100
0001
1010
0000
0010
0001
1100
0000
0001
1000
0101
0000
1000
0001
0110
0000
,
0001
0000
0100
0000
1100
0000
0000
0000
0011
0000
0000
0000
0101
0000
0000
0000
0011
0000
0000
0000
0101
0000
0110
0000
0202
0000
0000
0300
0200
0000
0000
0300
,
2000
0000
0000
3000
0023
0000
0000
0030
0220
0000
0000
0300
2000
0000
0000
3000
0200
0000
0000
0300
0032
0000
0000
0003
1100
0000
0000
0000
0000
0000
0101
0000
,
0000
0000
1100
0000
0110
0000
0110
0000
1001
0000
1010
0010
0101
0000
1001
0000
,
1001
0000
0011
0010
1001
0000
0000
1010
0000
0000
0101
0000
0012
0000
0013
1100
,
0000
0100
0011
0000
2001
0000
3001
0110
0000
0100
1010
0001
0220
0000
0330
0000
,
0101
0000
0011
0000
1100
0000
0000
1001
0000
0000
1010
0000
0011
0000
0000
1100
,
0000
0000
0101
0000
0101
0000
1000
0110
0000
0100
1001
0010
0101
0000
1000
0000
,
0101
0000
0001
0000
0101
0000
0000
1100
0000
0000
0100
0000
1002
0000
0103
0011
,
0000
0000
0100
0000
1010
0000
0000
0000
0021
0000
0000
0000
1030
0000
0110
0000
0000
0000
1000
0000
0011
0000
0000
0000
1000
0100
0010
0001
0010
0100
1000
0100
,
0010
0001
0010
0100
1000
0100
0010
0001
0010
0100
1000
0100
0010
0001
0010
0100
1000
0100
0010
0001
0010
0100
1000
0100
0011
0000
0001
0000
0010
0000
0100
0000
,
1000
0100
1000
0010
1100
0001
0100
0010
0100
0001
1000
0100
0011
0100
1000
0001
,
0100
0010
0100
0001
0110
0100
0001
1000
0100
1000
0010
0100
1001
0100
1000
0100
,
0001
0100
0010
0100
1010
0001
0010
0100
1000
0100
0010
0100
1010
0100
0010
0001
,
0010
0100
0010
0100
0101
1000
0001
0100
0001
0010
0100
1000
0101
1000
0100
1000
,
0010
0100
0010
0100
1010
0001
0100
0010
0100
1000
0001
0010
1100
1000
0100
0001
,
0100
1000
0100
1000
0110
1000
0100
0001
0100
1000
0100
0010
1001
0010
0001
0010
,
1000
0010
1000
0100
1010
0010
0100
0001
0100
0010
0001
0010
0101
0100
0001
0100
,
1001
0000
0000
0100
0000
0000
1000
0000
0000
0010
0000
0000
0101
0000
0000
0010
0000
0000
1000
0000
0000
0001
0000
0000
1010
0000
0000
0001
0000
0000
1000
0000
0000
0100
0000
0000
1001
0000
0000
0000
0100
0000
1100
0000
0000
0000
0001
0000
,
1100
0000
0100
0011
0000
0110
1000
0010
0100
1000
0001
0010
0100
1000
0001
0100
0001
1000
0001
0100
0001
0100
0001
1000
,
0100
0010
1000
0100
0010
0100
0010
0001
0100
0010
0001
0010
1000
0100
0001
1000
0010
0001
0100
0001
0010
1000
0001
0100
,
0001
0000
0000
0000
0000
0000
0000
0000
0110
0000
0000
0000
0000
0000
0000
0000
0000
0000
0000
0000
0000
0000
0000
0000
1100
0000
0000
0000
0000
0000
0000
0000
0000
0000
0000
0000
0101
0000
0000
0000
0000
0000
0000
0000
0000
0000
0000
0000
0011
0000
0000
0000
0000
0000
0000
0000
0000
0000
0000
0000
1100
0000
0000
0000
0000
0000
0000
0000
0000
0000
0000
0000
0110
0000
0000
0000
0000
0000
0000
0000
0000
0000
0000
0000
0000
0000
0000
0000
0000
0000
0000
0000
1100
0000
0000
0000
0000
0000
0000
0000
0000
0000
0000
0000
0101
0000
0000
0000
0000
0000
0000
0000
0000
0000
0000
0000
1100
0000
0000
0000
0000
0000
0000
0000
0101
0000
1000
0000
0000
0000
0000
0000
0010
0000
0000
0000
0000
0000
0100
0000
0000
0000
0000
0000
1000
0000
0000
0000
0000
0000
0010
0000
0000
0000
0000
0000
0001
0000
0000
0000
0000
0000
0100
0000
0000
0000
0000
0000
0010
0000
0000
0000
0000
0000
1000
0000
0000
0000
0000
0000
0100
0000
0000
0000
0000
0000
0001
0000
0000
0000
0000
0000
,
0010
1000
0100
0010
1000
0001
0010
0100
0001
1000
0100
0001
0010
1000
0001
0100
1000
0010
0100
0010
1000
0001
0100
0010
1000
0002
0000
0000
0000
0000
0000
0000
,
0000
0000
0000
0000
0000
0000
0000
0000
0000
0000
0000
0000
1000
1000
1000
1000
1000
1000
1000
1000
1000
1000
1000
1000
,
1000
0000
1000
0003
1000
0000
0000
0000
1001
0000
0000
0000
1001
0000
0000
0000
0101
0000
0000
0000
2020
0000
0000
0000
0000
0000
0000
0000
0000
0000
0000
0000
3030
0000
0000
0000
0000
0000
0001
0000
0202
0000
0000
0000
0303
0000
1000
0000
,
1000
0000
0000
0000
0000
0000
0000
0000
1000
0000
0000
0000
0000
0000
0000
0000
1000
0000
0000
0000
0000
0000
0000
0000
2200
0000
0000
0000
0000
0000
0000
0000
0000
0000
0000
0000
0000
0000
0000
0000
0000
0000
3300
0000
0000
0000
0000
0000
0012
0000
0000
0000
0000
0000
0000
0000
0000
0000
0000
0000
0000
0000
0000
0000
0000
0000
0000
0000
0000
0000
0000
0000
0010
0000
0000
0000
0000
0000
0000
0000
0010
0000
0000
0000
0000
0000
0000
0000
0010
0000
0000
0000
0000
0000
0000
0000
0010
0000
0000
0000
0000
0000
0000
0000
0010
0000
0000
0000
0000
0000
0000
0000
0010
0000
0000
0000
0000
0000
0000
0000
0010
0000
0000
0000
0000
0000
0000
0000
0010
0000
0000
0000
0000
0000
0000
0000
0010
0000
0000
0000
0000
0000
0000
0000
0010
0000
0000
0000
0000
0000
0000
0000
0010
0000
0000
0000
0000
0000
0000
0000
0010
0000
0000
0000
0000
0000
0000
0000
0013
0000
0000
0000
0000
0000
0000
0000
0100
0000
0000
0000
0000
0000
0000
0000
0100
0000
0000
0000
0000
0000
0000
0000
,
0001
0000
0000
0000
0000
0000
0000
0000
0001
0000
0000
0000
0000
0000
0000
0000
1000
0000
0000
0000
0000
0000
0000
0000
1000
0000
0000
0000
0000
0000
0000
0000
0010
0000
0000
0000
0000
0000
0000
0000
0220
0000
0000
0000
0000
0000
0000
0000
0000
0000
0000
0000
0000
0000
0000
0000
0000
0000
0000
0000
0000
0000
0000
0000
0000
0000
0000
0000
0000
0000
0000
0000
0000
0000
0000
0000
0000
0000
0000
0000
0000
0000
0000
0000
0000
0000
0000
0000
0000
0000
0000
0000
0000
0000
0000
0000
0000
0000
0000
0000
0000
0000
0000
0000
0000
0000
0000
0000
0000
0000
0000
0000
0000
0000
0000
0000
0000
0000
0000
0000
0000
0000
0000
0000
0000
0000
0000
0000
0330
0000
0000
0000
0000
0000
0000
0000
0000
0000
0100
0000
0000
0000
0000
0000
0000
0000
0000
0000
0000
0000
0000
0000
0000
0000
0000
0000
0000
0000
0000
0000
0000
0000
0110
0000
0000
0000
0000
0000
0010
0000
0000
0000
0000
0000
0000
0000
0010
0000
0000
0000
0000
0000
0000
0000
0010
0000
0000
0000
0000
0000
0000
0000
,
0001
0100
1000
0100
0100
0100
0010
0100
0100
0001
0100
1000
0010
0010
0010
1000
0001
0100
0100
0100
0001
0001
0001
1000
,
1000
0001
1000
0010
0001
0001
0010
0100
1000
0001
0100
0010
0010
0010
1000
0100
1000
0100
0100
0001
0100
0001
1000
0010
,
0100
0100
1000
0100
0100
0100
0200
0000
0000
0000
0000
0000
0000
0000
0000
0300
0000
0000
0040
0000
0000
0000
0000
0000
,
0000
0000
0000
0000
0000
0000
0000
0000
0000
0000
0000
4000
0000
0000
0000
0000
,
0000
0000
0000
0000
0000
0000
0000
0000
0400
0000
0000
0000
0000
0000
0000
0000
0004
0000
0000
0000
0000
0000
3333
0000
0011
0000
0000
0110
0000
0000
1100
0000
,
2002
0000
0000
0000
3003
0000
0001
0100
2002
0000
0003
0001
3000
0000
0011
0000
1000
0000
0101
0000
1000
0000
1010
0000
0220
0000
0000
0330
0202
0000
0000
0303
,
2200
0000
3300
0000
0110
0000
0110
0000
2020
0000
3030
0101
0000
0000
1100
0000
0022
0000
0000
0000
0000
0033
0011
0000
0220
0030
0000
0301
0000
0000
0110
0000
,
0220
0000
0000
0000
0000
0000
0000
0000
0000
0000
0000
0000
0000
0000
0000
0000
0000
0000
0000
0000
0000
0000
0000
0000
0330
0000
0000
0000
0000
0000
0000
0000
0000
0000
0000
0000
1000
0000
0000
0000
0000
0000
0010
0000
0000
0000
0000
0000
0202
0000
0000
0000
0000
0000
0000
0000
0000
0000
0000
0000
0300
0000
0000
0000
0000
0000
0200
0000
0000
0000
0000
0000
0000
0000
0000
0000
0000
0000
0300
0000
0000
0000
0000
0000
0200
0000
0000
0000
0000
0000
0000
0000
0000
0000
0000
0000
0303
0000
0000
0000
0000
0000
0000
0000
0000
0000
0000
0000
1100
0000
0000
0000
0000
0000
0000
0000
0000
0000
0000
0000
0101
0000
0000
0000
0000
0000
0000
0000
0000
0000
0000
0000
1100
0000
0000
0000
0000
0000
0000
0000
0000
0000
0000
0000
4040
3000
0000
0000
0000
0000
0000
0000
0000
0000
0000
0000
1000
0000
0000
0000
0000
0000
0000
0000
0000
0000
0000
0000
1000
0000
0000
0000
0000
0000
0000
0000
0000
0000
0000
0000
1030
0000
0000
0000
0000
0000
0000
0000
0000
0000
0000
0000
,
0404
0003
0000
0000
0000
0000
0000
0000
0000
0000
0000
0000
0001
0000
0000
0000
0000
0000
0000
0000
0000
0000
0000
0000
0001
0000
0000
0000
0000
0000
0000
0000
0000
0000
0000
0000
0301
0000
0000
0000
0000
0000
0000
0000
0000
0000
0000
0000
1010
0000
0000
0000
0000
0000
0000
0000
0000
0000
0000
0000
1010
0000
0000
0000
0000
0000
0000
0000
0000
0000
0000
0000
0101
0000
0000
0000
0000
0000
0000
0000
0000
0000
0000
0000
0101
0000
0000
0000
0000
0000
0000
0000
0000
0000
0000
0000
1000
0000
0000
0100
0000
0000
0010
0000
0000
0001
0000
0000
1000
0000
0000
0100
0000
0000
0010
0000
0000
0001
0000
0000
1000
0000
0000
0100
0000
0000
0010
0000
0000
0001
0000
0000
1000
0000
0000
0100
0000
0000
0010
0000
0000
0001
0000
0000
1010
0000
0000
0000
0000
0000
0000
0000
0000
0000
0000
0000
0100
0000
0000
0000
0000
0000
0000
0000
0000
0000
0000
0000
1000
0000
0000
0000
0000
0000
0000
0000
0000
0000
0000
0000
0001
0000
0000
0000
0000
0000
0000
0000
0000
0000
0000
0000
,
0010
0100
0001
0100
1001
0100
1000
0010
0100
0010
1000
0100
0011
0100
1000
0010
,
0001
0010
1000
0100
1100
0010
0100
0001
0010
0100
0010
0100
1010
1000
0100
1000
,
0001
0010
0100
0001
0011
0100
1000
0100
1000
0001
0010
0100
0011
0100
0010
1000
,
0100
1000
0001
0010
1001
0001
1000
0100
1000
0100
1000
0010
0110
1000
0010
0100
,
0001
0100
1000
0001
0110
0001
0100
0001
1000
0001
0100
0001
1100
0010
0001
0100
,
0001
0100
1000
0100
1001
0010
0100
0001
0100
1000
0100
0001
0110
1000
0010
0001
,
0010
1000
0100
1000
0101
1000
0010
0001
0100
0010
1000
0100
1001
0001
0100
0010
,
0101
1000
0001
0010
0110
1000
0100
0010
1001
0001
1000
0010
1100
0001
0110
0000
,
0101
0000
1100
0000
0101
0100
1001
0000
0110
0000
1001
0000
0101
0010
1100
0000
,
0110
0000
0101
0000
1100
1000
0101
0000
0011
0000
1100
0000
1100
0010
0101
0000
,
1010
0000
0011
0000
1100
0001
0101
0000
1010
0000
0011
0000
1100
0010
0101
0000
,
1001
0000
1100
0000
0110
1000
1001
0000
0110
0000
1100
0000
0101
0001
1100
0000
,
0110
0000
1100
0000
0101
0010
1001
0000
1100
0000
0101
0000
1001
0001
0110
0000
,
1100
0000
0110
0000
1100
0010
0101
0000
0011
0000
1001
0000
0011
0100
1100
0000
,
1001
0000
1100
0000
0110
1000
1001
0000
0110
0000
0101
0000
0011
0001
1010
0000
,
1001
0000
1100
0000
0101
0010
1001
0000
0110
0000
1001
0000
1100
0100
0110
0000
,
1001
0011
0000
1100
0010
0100
0010
1000
0001
0100
0010
0100
1001
0010
0101
0000
,
1100
0011
0000
0011
0110
1000
0100
1000
0010
0100
0001
0100
1100
0010
0101
0000
,
0011
0110
0000
1001
0110
0100
1000
0001
0100
1000
0100
0001
0110
0001
1001
0000
,
1100
0110
0000
1001
0101
1000
0100
1001
0000
2002
0000
0000
0000
0000
0000
0000
,
0000
0000
0000
0000
,
3003
0000
0000
0000
;

//---------------dance-single - ----------------
#NOTES:
     dance-single:
     :
     Hard:
     11:
     0.883,1.000,0.478,0.354,0.934,1255.000,112.000,83.000,0.000,0.000:


2000
3002
0203
0320
,
0230
0000
0000
0000
0000
0000
0300
0000
2000
0000
3002
0003
0020
0000
0230
0000
,
0302
0000
0000
0003
0002
0000
2003
0000
,
3002
0000
0000
0000
0000
0000
0003
0000
0020
0000
2030
0000
3200
0000
0320
0030
,
2000
0000
0000
0000
0000
0000
0000
0000
0000
0000
0000
0000
0000
0000
0000
0000
0000
0000
0000
0000
0000
0000
0000
0000
3002
0000
0000
0000
0000
0000
0000
0000
0000
0003
1000
0100
0002
0000
0000
0000
0000
0000
0000
0000
0000
0000
0000
0000
,
2003
3200
0320
2030
3020
0000
2030
0000
,
3002
0000
0000
0000
0000
0000
0000
0000
0000
0000
0000
0000
2003
0000
0000
3000
0000
0010
2000
0000
0000
3200
0000
0000
,
0302
0000
0000
0000
0000
0000
0000
0003
0020
0000
0000
0000
0032
0000
0000
0000
,
2003
3200
2300
3020
,
0230
0000
0000
0000
0000
0000
0301
1000
0010
0001
0100
0010
1000
0010
0100
1000
0010
0001
1000
0010
0100
1000
0010
0100
0001
0100
0010
1000
0100
0010
0001
0100
,
0020
0000
0000
0000
0000
0000
0000
0000
0000
0000
0000
0030
1001
0000
0100
0000
,
1000
0010
0101
1000
0100
1000
0101
0010
,
0100
0001
1100
1000
0001
0100
1010
0010
,
0100
1000
0101
1000
0100
0010
0011
0001
,
0010
0100
1100
0001
1000
0001
1010
1000
,
0010
0100
0110
0010
0100
0010
0101
1000
,
0001
0100
1001
1000
0001
0010
1100
0100
,
1000
0001
0011
0100
0010
1000
0101
1000
,
0001
0000
0010
0000
0101
0000
0010
0000
0100
0000
0001
0000
1001
0001
0100
0010
,
0000
0010
0100
0000
1000
0100
1000
0010
0101
0000
0000
0000
1000
0001
0100
0000
,
0010
0100
1000
0000
1000
0100
0010
0000
0001
1000
0001
0000
0100
0001
0010
0000
,
0100
0010
1000
0000
0001
0010
0001
0000
0100
0010
1000
0000
0100
0001
1000
0000
,
0100
1000
0010
0000
0100
0001
0010
0000
0010
0100
1000
0000
1001
0000
0001
0010
,
0000
0010
0100
0000
1001
0000
1000
0100
0000
0100
0010
0000
1001
0010
0100
0000
,
1000
0100
0010
0000
1000
0001
1000
0000
0001
0010
0100
0000
1000
0100
0010
0000
,
1000
0100
1000
0000
0010
0001
0010
0000
1000
0001
0100
0000
0100
1000
0010
0000
,
1000
0001
0100
0000
0010
0100
0001
0000
0001
1000
0100
0000
0100
0010
0001
0000
,
0010
0100
0001
0000
1000
0010
0100
0000
0001
1000
0001
1000
0001
0000
0010
0000
,
0100
1000
0100
0010
0001
0010
0100
1000
,
0100
0000
0010
0001
0000
0000
1001
0000
0110
0000
0001
1000
0001
0000
0001
1000
,
0100
0000
0010
0001
0100
0000
0000
1001
0000
0000
0101
0000
1001
0000
0010
1000
,
0000
1000
0010
0000
1001
0000
0001
0010
0000
0010
0001
0010
1001
0000
1010
0000
,
1010
0000
0110
0000
0110
0000
1100
0000
1100
0000
0101
0000
0101
0000
0000
0100
,
0000
0000
1001
0000
1001
0000
0100
0010
0001
0000
0001
0010
0100
0000
1000
0000
,
0100
0000
1000
0000
0010
0000
0100
0000
0001
0000
0010
0000
1001
0000
0001
0100
,
0000
0100
1000
0000
1001
0000
1000
0010
0000
0010
0001
0000
1001
0000
0100
0000
,
0010
0000
0100
0000
1100
0000
0010
0000
0001
0000
0010
0000
0101
0010
0100
1000
,
0100
0010
0001
0000
1000
0100
1000
0010
0100
0001
0100
0000
1000
0100
1000
0010
,
0100
0001
0010
0000
0010
0100
1000
0100
1000
0001
0100
0000
0010
0001
0010
0100
,
0001
0100
1000
0000
0100
1000
0010
0100
1000
0001
0100
0000
0010
0100
1000
0001
,
0100
0001
0100
0000
0010
0100
1000
0100
1000
0010
0100
0000
0001
1000
0001
1000
,
0001
0100
0010
0000
0010
0100
0010
0100
1000
0100
1000
0000
0001
0100
0001
0100
,
0010
0100
0001
0000
1000
0100
0010
1000
0001
0100
0010
0000
0100
0001
0100
1000
,
0100
0010
0100
0000
1000
0100
1000
0010
0100
0001
0100
0000
0010
0100
1000
0100
,
0010
0100
1000
0001
0100
0001
0100
0010
1000
0100
1000
0010
1001
0000
0010
0000
,
0100
1000
1001
0100
1000
0010
0101
1000
,
0100
1000
0110
0010
0100
1000
0101
0010
,
0100
0001
1100
0010
0100
0001
0011
0010
,
0100
1000
1100
1000
0100
0010
1001
0100
,
1000
0100
0110
1000
0001
0100
0011
0010
,
0100
0001
0101
1000
0100
1000
1010
0100
,
1000
0001
0110
0100
1000
0010
0101
1000
,
0100
0000
1000
0000
0110
0000
0100
0000
0001
0000
1000
0000
1100
0010
1000
0000
,
0001
0100
0010
0000
1000
0100
1000
0000
0010
0100
0001
0000
0001
0010
0001
0000
,
0100
1000
0100
0000
0010
0100
0010
0000
1000
0001
1000
0000
0100
0010
0001
0000
,
0001
0010
0100
0000
1000
0100
1000
0000
0010
0100
0001
0000
1001
0000
0010
0100
,
0000
0100
0001
0000
1001
0000
0001
0010
0000
0010
0100
0000
1001
0100
1000
0000
,
0010
0100
0010
0000
0010
0001
0010
0000
0010
0100
0010
0000
1000
0100
1000
0000
,
1000
0001
1000
0000
0001
0100
0001
0000
1000
0100
1000
0000
0100
0010
0100
0000
,
1000
0001
1000
0000
0010
0001
0010
0000
1000
0100
1000
0000
0010
1000
0010
0000
,
0010
0001
0010
0000
1000
0001
1000
0000
0010
0000
0001
0010
0100
0000
1000
0000
,
0100
0000
1000
0000
0010
0000
0100
0000
0001
0000
0100
0000
0010
0000
0000
0001
,
0000
0000
1010
0000
0101
0000
0100
0010
0100
1000
0100
0001
0100
0000
0010
0100
,
1000
0000
0100
0010
0001
0000
0000
0001
0000
0000
1001
0000
1001
0000
1000
0010
,
0000
0010
0100
0000
1001
0000
0100
0001
0000
0001
0100
0000
1001
0000
0100
0000
,
1000
0000
0010
0000
0101
0000
0001
0000
0100
0000
0010
0000
1010
0000
0000
1000
,
0000
0000
0110
0000
0110
0000
0010
0100
0001
0000
0001
0010
0100
0000
1000
0100
,
1000
0000
0010
0100
0010
0000
0000
0001
0000
0000
1100
0000
1001
0000
0001
0100
,
0000
0000
1000
0000
0001
0000
0000
0000
1001
0000
0000
0000
0100
0000
1000
0000
0000
0000
0001
0000
0010
0000
0000
0000
1001
0100
1000
0100
1000
0100
1000
0100
,
1000
0100
1000
0100
1000
0100
1000
0100
0010
0001
0010
0001
0010
0001
0010
0001
0010
0001
0010
0001
0010
0001
0010
0001
0010
0000
0100
0000
1000
0000
0100
0000
,
0010
0100
0001
0000
0001
0010
0100
1000
0100
1000
0010
0000
0100
1000
0100
1000
,
0010
0100
0001
0000
0001
0100
0010
0100
1000
0010
0100
0000
0100
0010
1000
0100
,
1000
0001
0100
0000
0010
0001
0010
0100
1000
0100
0010
0000
1000
0100
0010
1000
,
0001
0100
0010
0000
0010
0100
1000
0001
0100
0001
0100
0000
0100
0001
0010
0100
,
1000
0100
0010
0000
1000
0100
1000
0010
0100
0001
0100
0000
0010
0001
0010
0100
,
1000
0001
0100
0000
0010
0100
0001
0100
1000
0010
0100
0000
0100
1000
0001
0100
,
0010
0001
1000
0000
0100
1000
0010
0100
0001
0010
0100
0000
1000
0100
1000
0010
,
0100
0001
0100
0010
0100
1000
0100
1000
0001
0100
0010
0100
0001
0010
0000
0010
,
0100
0000
0100
1000
0000
1000
0001
0000
1000
0100
1000
0010
0100
0001
0100
0001
,
0010
0001
0010
0100
1000
0100
1000
0001
1000
0100
0001
0100
1000
0010
0001
0010
,
1000
0000
0100
0000
1000
0000
0001
0000
0100
0000
0001
0000
0100
0000
1000
0000
0100
0000
1000
0000
0001
0100
0001
0100
0001
0100
0001
0100
0001
0100
0001
0100
,
0001
1000
0001
1000
0001
1000
0001
1000
0001
1000
0100
1000
0100
1000
0100
1000
0100
0010
0100
0010
0100
0010
0100
0010
0100
0000
0000
0000
0010
0000
0000
0000
,
0100
1000
0100
0001
0100
1000
0100
1000
,
0010
0100
0001
0100
0010
0100
0001
0010
,
0100
1000
0100
1000
0010
0100
0001
1000
,
0010
0000
0000
0100
0000
0000
2002
0000
0000
0000
0000
0000
0000
0000
0000
3003
0000
0000
0010
0000
0000
0010
0100
1000
,
0001
1000
0100
1000
0100
1000
0100
0010
0001
0010
0001
0010
0100
1000
0100
1000
0100
1000
0010
0001
0010
0001
0010
0001
,
1000
0100
1000
0100
1000
0100
0010
0100
0010
0100
0010
0100
1000
0001
1000
0001
1000
0001
0100
0001
0100
0001
0100
0001
,
1000
0000
0100
0000
1000
0000
0100
0000
1000
0000
0100
0000
0000
0000
0000
0000
0000
0000
0000
0000
0000
0000
0000
0000
0000
0000
0000
0000
0000
0000
0000
0000
0000
0000
0000
0000
1001
0000
0000
0000
0000
0000
0000
0000
0000
1001
0000
0000
,
0000
0000
0000
0000
1100
0000
0000
1100
0000
0000
0000
0000
1000
0001
1000
0001
,
1000
0001
1000
0001
1000
0001
1000
0001
1000
0001
1000
0001
2002
0000
0000
3003
,
0202
0000
0000
0303
2200
0000
0000
3300
0220
0000
0000
0330
2200
0000
0000
3300
,
0202
0000
0000
0303
2002
0000
0000
3003
2200
0000
0000
3300
2020
0000
0000
3030
,
0022
0000
0000
0033
2200
0000
0000
3300
2002
0000
0000
3003
0002
0023
0230
2300
,
3002
0023
0230
2300
3002
0023
0230
2300
3002
0023
0230
2300
3001
0010
0100
1000
,
0001
0100
0010
0000
1000
0100
1000
0010
0100
0001
0100
0000
0010
0100
0001
1000
,
0100
0010
0100
0000
1000
0100
1000
0010
0100
0001
0100
0000
0001
0100
0010
0100
,
1000
0010
0100
0000
0100
0010
0100
1000
0001
0100
0010
0000
0001
0010
0100
1000
,
0100
0010
1000
0000
0001
0100
0001
1000
0100
1000
0010
0000
1000
0100
0010
0001
,
0010
0100
1000
0000
1000
0100
0010
0001
0010
0100
1000
0000
1000
0001
1000
0001
,
0100
0001
0100
0000
0010
0100
1000
0100
0010
0100
1000
0000
0001
0100
0001
0100
,
0010
0100
1000
0100
1000
0010
0100
0001
0100
0001
0100
1000
0001
0010
0100
1000
,
0100
1000
0010
0100
0001
1000
0100
1000
0001
0100
0010
0100
1001
0000
1000
0000
,
0001
0100
0101
1000
0100
1000
1100
0010
,
0100
0010
0110
1000
0001
1000
0011
0010
,
0100
1000
1100
1000
0010
1000
0101
0001
,
0010
0100
1100
1000
0100
0010
1001
1000
,
0001
1000
0101
1000
0001
0100
0011
1000
,
0100
0010
1100
1000
0001
0100
0110
1000
,
0001
0010
0011
0100
1000
0100
1010
0100
,
1000
0000
0001
0000
0101
0000
1000
0000
0001
0000
0010
0000
0101
1000
0001
0000
,
0001
0010
0000
0010
0100
1000
0100
1000
0010
0100
0001
0100
0001
0100
0010
0000
,
0010
0100
0000
0100
1000
0100
1000
0010
0100
0001
0100
1000
0100
1000
0010
0000
,
0010
0100
0000
0100
1000
0001
0100
0001
0100
0010
0100
1000
0100
0010
0100
0000
,
0001
0010
0000
0010
0100
1000
0100
0001
0000
2002
0000
0000
0000
0000
0000
0000
,
0000
0000
0000
0000
0000
0000
0000
3003
;

//---------------dance-single - ----------------
#NOTES:
     dance-single:
     :
     Medium:
     8:
     0.473,0.567,0.379,0.072,0.013,671.000,89.000,17.000,0.000,0.000:

1000
0001
1000
0001
,
1000
0000
0100
0010
,
0100
0000
1000
0001
,
1000
0000
0010
0001
,
0010
0000
1000
0100
,
1000
0000
0010
0100
,
0010
0000
1000
0001
,
1000
0000
0010
0100
,
0010
1000
0001
1000
,
0002
0000
0000
0000
,
0000
0000
0000
0000
0000
0000
0000
0000
0000
0000
0000
0000
0000
0000
0000
0000
0003
0000
1000
0000
0000
0100
0000
0000
,
1000
0000
0010
0100
0010
0000
1000
0001
,
0010
0000
1000
0100
1000
0000
1000
0001
,
1000
0000
0010
0001
0010
0000
1000
0001
,
0100
0000
1000
0010
1000
0000
1000
0100
,
0010
0000
1000
0100
0010
0000
0001
0010
,
0100
0000
0001
0010
0100
0000
1000
0001
,
0100
0000
1000
0001
0100
0000
1000
0010
,
0100
1000
0010
0100
1000
0001
0100
0001
,
1000
0001
0100
0001
1000
0000
0000
0101
,
0000
1100
0000
0110
0000
1100
0000
1001
,
0000
0101
0000
0011
0000
0110
0000
1100
,
0000
1001
0000
0101
0000
1001
0001
0010
,
0100
1000
0100
0010
0001
0010
1000
0101
,
0000
1010
0000
1100
0000
1010
0000
1100
,
0000
0101
0000
0011
0000
0101
0000
0011
,
0000
1001
0000
0110
0000
1001
0000
1100
,
0000
1100
0100
0010
0100
0010
0100
0010
,
0100
1000
0001
1000
0001
0100
0001
0100
,
0001
0010
0001
0000
0000
0000
1000
0100
,
1000
0000
0010
0000
1000
0000
0010
0000
1000
0000
0100
0000
1000
0000
0000
0001
,
0000
0000
1000
0000
0001
0000
0000
0001
0000
0000
1000
0000
0100
0000
0010
0000
,
0100
0010
1000
0100
1000
0100
0010
0100
,
0010
0001
0010
0000
0000
0000
1000
0100
,
1000
0100
0010
0100
0010
0001
0010
0100
,
1000
0100
0010
1000
0100
0010
1100
0000
,
1100
0000
1100
0000
1100
1000
0100
1000
,
0100
1000
0100
1000
0100
0010
0100
0010
,
0100
0010
0100
0010
0001
0010
0001
0010
,
0001
0010
0001
0010
0001
1000
0001
1000
,
0001
1000
0001
1000
0001
0100
0001
0100
,
0001
0100
0001
0100
0010
0001
0010
0001
,
0010
0001
0010
0001
1000
0001
1000
0001
,
1000
0010
1000
0010
1000
0100
1000
0100
,
1000
0100
0010
0001
0010
0100
1000
0100
,
1000
0000
0010
0100
0010
0000
0010
0001
,
0010
0000
0100
1000
0100
0000
0010
0100
,
0010
0000
1000
0001
1000
0000
0001
0100
,
0001
0000
0010
0001
0010
0000
1000
0100
,
1000
0000
0010
0100
0010
0000
1000
0001
,
1000
0000
0001
0100
0001
0000
0010
0001
,
0010
0000
1000
0010
1000
0000
0100
1000
,
0100
0000
0010
0100
0010
0000
0001
1001
,
0000
1100
0000
0101
0000
0011
0000
0110
,
0000
1100
0000
1001
0000
0101
0000
1100
,
0000
0000
1010
0000
0000
0000
1001
0000
0000
0000
0101
0000
0100
0000
0000
0010
,
0000
0000
0100
0000
0010
0000
0000
0100
0000
0000
0010
0000
0100
0000
1100
0000
,
0000
0101
0000
1100
0000
0101
0000
0011
,
0000
1010
0000
0011
0000
1010
0000
1100
,
0000
0101
0000
1100
0000
0101
0000
1001
,
0000
0110
0000
1100
0100
0010
0001
0010
,
0001
0000
1000
0100
1000
0000
0100
1000
,
0100
1000
0100
1000
0010
0100
0001
0010
,
0001
0000
0001
0010
0001
0000
0001
0010
,
0100
1000
0100
0010
0100
0010
0100
1000
,
0001
0000
0001
0100
0001
0000
1000
0010
,
1000
0100
1000
0010
1000
0100
1000
0010
,
0100
0000
0100
0010
0100
0000
0001
0100
,
0001
0100
0001
1000
0100
1000
0100
1000
,
0100
1000
0010
0100
0010
0100
0001
0010
,
0001
0010
0001
0100
0001
0100
0001
1000
,
0001
1000
0001
1000
0100
1000
0100
1000
,
0100
0010
0100
0010
0100
0010
0100
0001
,
0100
0001
0100
0001
1000
0001
1000
0001
,
1000
0100
1000
0100
1000
0010
0100
0010
,
0100
0010
1000
0100
1000
0100
1000
0010
,
0100
0010
0100
0010
0001
0010
0001
0010
,
0001
1000
0001
1000
0001
1000
0101
0000
,
1100
1010
0101
1001
,
0101
1100
0110
1001
,
0011
0101
1100
0110
,
1100
0101
1001
2002
,
0000
0000
3003
0202
,
0000
0000
0303
2200
,
0000
0000
3300
0101
,
1100
0000
0101
0000
1100
0000
1000
0100
,
1000
0010
1000
0100
1000
0001
0100
0001
,
0100
1000
0100
0001
0010
0001
0010
0001
,
0010
0100
1000
0000
0000
0000
1100
0000
,
1100
0101
0101
0011
,
0011
1010
1010
1000
,
0001
1000
0001
0100
,
0010
0100
0010
1000
,
0100
0000
1000
0000
0100
0000
2000
3002
,
2003
3002
2003
3002
2003
3002
1003
0100
,
1000
0100
1000
0010
1000
0010
1000
0100
,
1000
0100
1000
0010
1000
0010
1000
0001
,
1000
0001
1000
0001
0100
0001
0100
0001
,
1000
0001
1000
0001
0100
0001
0100
0001
,
1000
0001
1000
0001
0100
0001
0100
0001
,
0010
0001
0010
0001
0010
1000
0010
1000
,
0010
1000
0010
0001
0010
0001
0010
1000
,
0010
1000
0010
1000
0100
0001
1000
0100
,
1000
0000
0010
0001
0010
0000
0100
0010
,
0100
0000
1000
0100
1000
0000
0010
0001
,
0010
0000
0100
0001
0100
0000
1000
0001
,
1000
0000
1000
0001
1000
0000
0100
0010
,
0100
0000
1000
0010
1000
0000
0100
1000
,
0100
0000
0001
0100
0001
0000
0010
0001
,
0010
0000
1000
0010
1000
0000
1000
0001
,
1000
0000
1000
0001
1000
0000
0100
0000
,
0010
0000
1000
0100
0010
0001
0010
0000
,
0010
0000
0010
0100
1000
0100
0010
0000
,
0100
0000
0100
1000
0100
1000
0001
0000
,
0001
0000
0000
0000
1000
0000
0000
0010
0000
0220
0000
0000
0000
0000
0000
0000
,
0000
0000
0000
0000
0000
0330
0000
0000
;

//---------------dance-single - ----------------
#NOTES:
     dance-single:
     :
     Easy:
     4:
     0.223,0.222,0.009,0.051,0.002,352.000,2.000,12.000,0.000,0.000:



2000
0000
0000
0000
0000
0000
0000
3000
,
0002
0000
0000
0000
0000
0000
0000
0003
,
0020
0000
0000
0000
0000
0000
0000
0030
,
0200
0000
0000
0000
0000
0000
0000
0300
,
2000
0000
0000
0000
0000
0000
0000
3000
,
0002
0000
0000
0000
0000
0000
0000
0003
,
0020
0000
0000
0000
0000
0000
0000
0030
,
0200
0000
0000
0000
0000
0000
0000
0300
,
0001
1000
0001
1000
,
2002
0000
0000
0000
,
0000
0000
0000
0000
0000
3003
0010
0000
,
0010
0010
0010
1000
,
1000
1000
1000
0001
,
0001
0001
0001
0010
,
0010
0010
0010
0100
,
0100
0100
0100
1000
,
1000
1000
1000
0001
,
0001
0001
0001
0100
,
0100
0100
0100
0010
,
0010
0010
0010
0010
,
0000
1000
0000
0001
,
0000
1000
0000
0100
,
0000
0010
0000
1000
,
0100
0010
0001
0010
,
0000
0100
0000
1000
,
0000
0001
0000
1000
,
0000
0100
0000
1000
,
0000
0010
0000
0100
,
0100
0100
0000
0001
,
0001
0001
0000
1000
,
1000
1000
0000
0010
,
0010
0010
0000
0100
,
0100
0100
0000
0001
,
0001
0001
0000
1000
,
1000
1000
0000
1000
,
1000
1000
0000
1000
,
0100
0010
0001
0010
,
0100
1000
0100
1000
,
0001
0100
0001
0010
,
0001
0010
0001
1000
,
0100
1000
0001
1000
,
0001
0100
0001
0100
,
1000
0100
1000
0010
,
0100
1000
0001
0100
,
0001
1000
0100
1000
,
1000
1000
1000
0001
,
0001
0001
0001
0010
,
0010
0010
0010
0100
,
0100
0100
0100
1000
,
1000
1000
1000
0001
,
0001
0001
0001
1000
,
1000
1000
1000
0010
,
0010
0010
0010
1000
,
0000
0001
0000
1000
,
0000
0100
0000
0010
,
0000
0100
0000
1000
,
0001
1000
0001
0100
,
0000
0010
0000
0100
,
0000
1000
0000
0001
,
0000
0100
0000
0010
,
0000
0100
0000
1000
,
1000
1000
0000
0001
,
0001
0001
0000
0010
,
0010
0010
0000
0100
,
0100
0100
0000
1000
,
1000
1000
0000
0001
,
0001
0001
0000
0010
,
0010
0010
0000
0100
,
0100
0100
0000
1000
,
0001
1000
0001
1000
,
0100
1000
0100
1000
,
0010
1000
0001
0100
,
0001
0010
0001
0010
,
0100
0001
0100
0001
,
1000
0100
0001
0100
,
1000
0010
0001
0010
,
1000
0100
1000
0001
,
0100
0010
0100
1000
,
0000
0100
0000
0010
,
0000
1000
0000
0001
,
0000
0100
0000
0010
,
0000
0100
0000
0001
,
0000
0100
0000
0010
,
0000
0100
0000
1000
,
0000
0001
0000
1000
,
0000
0001
0000
0100
,
0000
1000
0000
0010
,
0000
0100
0000
0001
,
0000
0100
0000
1000
,
0000
0010
0000
1000
,
0000
0001
0000
0100
,
0100
0100
0100
0010
,
0010
0010
0010
1000
,
1000
1000
0001
0001
,
0001
0001
0001
0010
,
0010
1000
1000
0001
,
0001
0100
0100
0010
,
0010
1000
1000
0010
,
0010
1000
1000
0001
,
0001
0100
0100
0001
,
0001
1000
1000
0001
,
0001
1000
1000
0100
,
0100
0010
0010
1000
,
1000
1000
1000
0001
,
0001
0001
0001
0010
,
0010
0010
0010
0100
,
0100
0100
0100
1000
,
1000
1000
1000
0010
,
0010
0010
0010
0100
,
0100
0100
0100
0001
,
0001
0001
0001
1000
,
0000
0001
0000
0100
,
0000
0010
0000
0100
,
0000
1000
0000
0001
,
0000
0000
0000
0000
0100
0000
0000
0000
0000
0220
0000
0000
0000
0000
0000
0000
,
0000
0000
0000
0330
;
